עכשיו 06/04/20 08:35

פרסם תגובה פרסם נושא חדש עמוד 1 מתוך 2   [ 14 הודעות ]
עבור לעמוד 1, 2  הבא
מחבר הודעה
 נושא ההודעה: תוכנות מומלצות ל-android
הודעהפורסם: 07/10/11 19:39 
חבר האתר

סמל אישי של המשתמש

הצטרף:
06/06/09 16:42

הודעות: 10012
היי

אני ספציפית מחפש

- ספרים - קריאה של epub, fb2, pdf מתוך sdcard
- סרטים - ניגון MKV, DIVX וכו' מ-sdcard
- מוזיקה - ניגון קבצי flac כולל היי-רז (כי פשוט ישלי כאלה, לא כי אני מצפה לאיכות כאן).. משהו נוסח foobar

אין לי בעיה לקנות בתנאי שיש trial לשבוע לפחות

_________________
מיכאל


חזור למעלה
 מחובר פרופיל אישי הסטאפ שלי  
 
 נושא ההודעה: Re: תוכנות מומלצות ל-android
הודעהפורסם: 07/10/11 19:46 
חבר האתר

סמל אישי של המשתמש

הצטרף:
29/05/10 14:39

הודעות: 6588
מיקום: פינתקובה דיזינגובה
אני משתמש ב - PowerAMP.
פי די אפ אני קורא עם אקרובט רידר :)

_________________
"מותו של אדם אחד - טרגדיה, מותם של מיליונים - סטטיסטיקה"


חזור למעלה
 פרופיל אישי הסטאפ שלי  
 
 נושא ההודעה: Re: תוכנות מומלצות ל-android
הודעהפורסם: 07/10/11 19:51 
חבר האתר

סמל אישי של המשתמש

הצטרף:
06/06/09 16:42

הודעות: 10012
valer_valer כתב:
אני משתמש ב - PowerAMP.

היא trial?

valer_valer כתב:
פי די אפ אני קורא עם אקרובט רידר :)

בעיקר epub ו-fb2
PDF זה עבור tone audio :)

_________________
מיכאל


חזור למעלה
 מחובר פרופיל אישי הסטאפ שלי  
 
 נושא ההודעה: Re: תוכנות מומלצות ל-android
הודעהפורסם: 08/10/11 21:41 
חבר האתר

סמל אישי של המשתמש

הצטרף:
05/07/11 00:37

הודעות: 626
למוזיקה יש את Winamp, היא חינמית ואני מאד מרוצה ממנה.

לגבי ספרים אין לי כל כך מושג.

לסרטים יש כל מיני, השאלה אם אתה רוצה לנגן HD או לא.
לניגון HD, רק Dice עושה את העבודה כי הוא הנגן היחידי שתומך ב MKV וגם מנגן HD דרך האצת חומרה של הטגרה 2.
לתוכן SD יש את BS Player ועוד כל מיני נגנים נחמדים כמו MX Video או Rock Player, תנסה ותראה מי מתאים לך.


חזור למעלה
 פרופיל אישי הסטאפ שלי  
 
 נושא ההודעה: Re: תוכנות מומלצות ל-android
הודעהפורסם: 09/10/11 00:04 
חבר האתר

סמל אישי של המשתמש

הצטרף:
06/06/09 16:42

הודעות: 10012
The-Fox כתב:
למוזיקה יש את Winamp, היא חינמית ואני מאד מרוצה ממנה.


מה, זה עובד נוסח iTunes?
איך אני מגדיר לו library?

_________________
מיכאל


חזור למעלה
 מחובר פרופיל אישי הסטאפ שלי  
 
 נושא ההודעה: Re: תוכנות מומלצות ל-android
הודעהפורסם: 09/10/11 05:29 
חבר האתר

סמל אישי של המשתמש

הצטרף:
06/06/09 16:42

הודעות: 10012
טוב

קניתי את Dice ו-PowerAmp
[ אם כי יש כמה קבצים ש-Dice לא מנגן אצלי ]

_________________
מיכאל


חזור למעלה
 מחובר פרופיל אישי הסטאפ שלי  
 
 נושא ההודעה: Re: תוכנות מומלצות ל-android
הודעהפורסם: 09/10/11 13:03 
חבר האתר

סמל אישי של המשתמש

הצטרף:
05/07/11 00:37

הודעות: 626
michael123 כתב:
The-Fox כתב:
למוזיקה יש את Winamp, היא חינמית ואני מאד מרוצה ממנה.


מה, זה עובד נוסח iTunes?
איך אני מגדיר לו library?


אממ, בגדול זה עובד כמו כל נגן נורמאלי, אתה מחבר את המכשיר למחשב, מעתיק קבצים ויש שירות שרץ ברקע וסורק/מחפש שירים חדשים ככה שאתה לא צריך לעשות כלום.
יש אפשרות לסינכרון סטייל iTunes ע"ג USB ונראה לי שגם WIFI אבל אני אישית לא סובל את זה, לכן לא השתמשתי ולא יכול להגיד אם זה טוב או לא.

מה אתה מנסה לנגן ב DICE שלא עובד ?


חזור למעלה
 פרופיל אישי הסטאפ שלי  
 
 נושא ההודעה: Re: תוכנות מומלצות ל-android
הודעהפורסם: 09/10/11 14:11 
חבר האתר

סמל אישי של המשתמש

הצטרף:
06/06/09 16:42

הודעות: 10012
The-Fox כתב:

אממ, בגדול זה עובד כמו כל נגן נורמאלי, אתה מחבר את המכשיר למחשב, מעתיק קבצים ויש שירות שרץ ברקע וסורק/מחפש שירים חדשים ככה שאתה לא צריך לעשות כלום.
יש אפשרות לסינכרון סטייל iTunes ע"ג USB ונראה לי שגם WIFI אבל אני אישית לא סובל את זה, לכן לא השתמשתי ולא יכול להגיד אם זה טוב או לא.


לא מצא כלום, ולא ראיתי איפה מגדירים לו folder של הספריה

The-Fox כתב:
מה אתה מנסה לנגן ב DICE שלא עובד ?


יש לי איזה סרט, MKV, לא גדול במיוחד (2.5G)
אני מקליק, מקבל מסך שחור כמה שניות, ואז הנגן חוזר לרשימת הקבצים

_________________
מיכאל


חזור למעלה
 מחובר פרופיל אישי הסטאפ שלי  
 
 נושא ההודעה: Re: תוכנות מומלצות ל-android
הודעהפורסם: 09/10/11 18:57 
חבר האתר

סמל אישי של המשתמש

הצטרף:
05/07/11 00:37

הודעות: 626
מה זה "לא מצא כלום" ?
למה אתה צריך להגדיר ספריה ?
כמו שאמרתי, הוא יזהה את המוזיקה לבד.

בכל מקרה, תחת ה Settings יש "Enable Wireless Sync", אתה צריך בצד של המחשב איזה תוכנה שתדבר עם הנייד ותבצע את הסינכרון (אני מאמין ש Winamp).
שוב, אין לי מושג יותר מזה להגיד לך איך זה עובד כי אני לא משתמש בזה.


לגבי הווידאו הבעייתי ב DICE:
תוריד תוכנה למחשב בשם mediainfo, תגרור את הקובץ MKV אל התוכנה ותזרוק כאן את הפלט של כל המידע שאתה מקבל.
במקביל הייתי שולח את המידע הנ"ל + תאור הבעיה למפתח של התוכנה.


חזור למעלה
 פרופיל אישי הסטאפ שלי  
 
 נושא ההודעה: Re: תוכנות מומלצות ל-android
הודעהפורסם: 10/10/11 00:21 
חבר האתר

סמל אישי של המשתמש

הצטרף:
06/06/09 16:42

הודעות: 10012
General
Format : AVI
Format/Info : Audio Video Interleave
Format profile : OpenDML
File size : 2.19 GiB
Duration : 2h 34mn
Overall bit rate : 2 030 Kbps
Writing application : VirtualDubMod 1.5.10.2 (build 2540/release)
Writing library : VirtualDubMod build 2540/release

Video
ID : 0
Format : MPEG-4 Visual
Format profile : Advanced Simple@L5
Format settings, BVOP : 2
Format settings, QPel : No
Format settings, GMC : No warppoints
Format settings, Matrix : Custom
Codec ID : XVID
Codec ID/Hint : XviD
Duration : 2h 34mn
Bit rate : 1 635 Kbps
Width : 720 pixels
Height : 304 pixels
Display aspect ratio : 2.35:1
Frame rate : 23.976 fps
Color space : YUV
Chroma subsampling : 4:2:0
Bit depth : 8 bits
Scan type : Progressive
Compression mode : Lossy
Bits/(Pixel*Frame) : 0.311
Stream size : 1.76 GiB (81%)
Writing library : XviD 1.2.1 (UTC 2008-12-04)

Audio
ID : 1
Format : AC-3
Format/Info : Audio Coding 3
Mode extension : CM (complete main)
Codec ID : 2000
Duration : 2h 34mn
Bit rate mode : Constant
Bit rate : 384 Kbps
Channel(s) : 6 channels
Channel positions : Front: L C R, Side: L R, LFE
Sampling rate : 48.0 KHz
Bit depth : 16 bits
Compression mode : Lossy
Stream size : 424 MiB (19%)
Alignment : Aligned on interleaves
Interleave, duration : 42 ms (1.00 video frame)
Interleave, preload duration : 512 ms

_________________
מיכאל


חזור למעלה
 מחובר פרופיל אישי הסטאפ שלי  
 

פרסם תגובה פרסם נושא חדש עמוד 1 מתוך 2   [ 14 הודעות ]
עבור ל:  
עבור לעמוד 1, 2  הבא

הצג הודעות החל מה:  מיין לפי  



חפש:

hifimusic
אודות
תנאי שימוש
צור קשר
אוהבים את
hifimusic?
סקירות אודיו
הכל
הגברה
רמקולים
מקורות
אחר
סקירות מוזיקה
הכל
קלאסי
ג'אז
פופ/רוק/אלטרנטיבי
עולם/ישראלי/אחר
קישורים
מותגים על פי שם
מותגים על פי יבואן
מומלצים
הפורום
הרשם
לוח בקרה
הודעות אחרונות